Loading...

Sui Dhaaga 2018 Hindi 1080p BluRay DD 5 1 x264 ESub [MW]

Seeders: 10
Leechers: 3
Completed: 304

Age: 1 week    Visits: 37    Category: Movies    Size: 2.0 GB

Posted by: moviezworldz    Comments: Read Comments

Info Hash: 1747F0B9C10BFD3A3FD6F19DDA9540CCD5170C24



Torrent Description







General
Format : Matroska
Format version : Version 4 / Version 2
File size : 2.04 GiB
Duration : 2 h 2 min
Overall bit rate : 2 385 kb/s

Video
ID : 1
Format : AVC
Format/Info : Advanced Video Codec
Format profile : [email protected]
Format settings : CABAC / 4 Ref Frames
Format settings, CABAC : Yes
Format settings, RefFrames : 4 frames
Codec ID : V_MPEG4/ISO/AVC
Duration : 2 h 2 min
Bit rate : 2 000 kb/s
Width : 1 920 pixels
Height : 804 pixels
Display aspect ratio : 2.40:1
Frame rate mode : Constant
Frame rate : 24.000 FPS
Color space : YUV
Chroma subsampling : 4:2:0
Bit depth : 8 bits
Scan type : Progressive
Bits/(Pixel*Frame) : 0.054
Stream size : 1.70 GiB (83%)
Writing library : x264 core 155 r2901 7d0ff22
Default : Yes
Forced : No

Audio
ID : 2
Format : AC-3
Format/Info : Audio Coding 3
Codec ID : A_AC3
Duration : 2 h 2 min
Bit rate mode : Constant
Bit rate : 384 kb/s
Channel(s) : 6 channels
Channel positions : Front: L C R, Side: L R, LFE
Sampling rate : 48.0 kHz
Frame rate : 31.250 FPS (1536 SPF)
Bit depth : 16 bits
Compression mode : Lossy
Stream size : 336 MiB (16%)
Language : Hindi
Service kind : Complete Main
Default : Yes
Forced : No

Text
ID : 3
Format : PGS
Muxing mode : zlib
Codec ID : S_HDMV/PGS
Codec ID/Info : Picture based subtitle format used on BDs/HD-DVDs
Duration : 1 h 58 min
Bit rate : 13.7 kb/s
Count of elements : 3084
Stream size : 11.6 MiB (1%)
Language : English
Default : Yes
Forced : Yes


Click To View Image









Recently Added Torrents in Movies

Trackers List

tracker name
udp://tracker.opentrackr.org:1337/announce
udp://tracker.leechers-paradise.org:6969/announce
udp://tracker.pirateparty.gr:6969/announce
udp://tracker.coppersurfer.tk:6969/announce
udp://tracker.mg64.net:2710/announce
udp://tracker.zer0day.to:1337/announce

Sharing Widget


Download torrent
2.0 GB
Seeders: 10
Leechers: 3
Sui Dhaaga 2018 Hindi 1080p BluRay DD 5 1 x264 ESub [MW]